-< >-Angry Video Game Nerd I & II Deluxe > General Discussions > Topic Details. * Ektoplazm is a source for awesome quality electronic music. Your Name. Sleep Forever 9. Bobby Tahouri - Every Hero Has to Start Somewhere (08:44) 02. Medal of Honor (2010) – Ramin Djawadi [LOSSLESS FLAC] On Mar 4, 2018 Last updated Mar 4, 2018 443. Call of Duty Modern Warfare 2 – Hans Zimmer, Lorne Balfe (2014) [LOSSLESS FLAC] On Mar 1, 2018 Last updated Mar 1, 2018 701. Challenge 1 11. Alone 14. 1 / 5. The Crossing 15. The music and sound effects were played with the game's sound test menu and recorded from the consoles' stereo headphones jack. Requiem For a Dream (Original Soundtrack) [1996] [FLAC mp3] . The PAYDAY 2 Official Soundtrack was released on August 13, 2013. We regularly release both new soundtracks and interesting older ones. Third Confluence 7. Exchange (feat. The Call 3. I only just bought and installed a sound card in my system so I have only listened to a few FLAC songs so far but what I am hearing is brilliant. Anima 10. 3 ; Re-Up this Album. Valisita 5. Battle 1 8. While we began as a database for video game music, that quickly expanded in 2009 when we reformulated as "The Music of Visual Arts and Games." Mondo is proud to present the premiere physical release of the soundtrack to the MSX2 version of the classic game that started it all: METAL GEAR. Hello, friends. Information about the game … Welcome to our High Quality Video Game Soundtracks Section. Nascence 2. Dreams 5. Tower 8. 【 Download Soundtracks 】Download movie and game soundtracks for Free MP3 320kbps & FLAC Updates OST every day. Posts: 0. Some artists and services choose to put their music up for free, and they do so in a way that allows you to download it legally. The Call 3. Party Time 7. Crater (feat. Produced by Neïwa Interactive. We've been building a community for people who are interested in video game music, video games, and other assorted media, but are tired of the constant cynicism and negativity that permeate many communities with those interests. Escape 15. Tempa 4. Can anyone recommend me some Video Game sound tracks that are in FLAC so I can experience better quality sound. Filename C:\EAC\London Philharmonic Orchestra - The Greatest Video Game Music 2 (2012) [FLAC]\05 - Mass Effect 3- A Future for the Krogan,An End Once and for All.wav Pre-gap length 0:00:02.27 Peak level 96.3 % Extraction speed 7.5 X Track quality 100.0 % Test CRC 89F753AA Copy CRC 89F753AA Track not present in AccurateRip database Copy OK Track 6 Free Lossless Audio Codec (FLAC) is a lossless audio codec belonging to the Vorbis family of open-source patent-free media formats. Solar 9. The best video game music: our guide to the best soundtracks . 0; Add comment . Duet: Original Soundtrack by Tim Shiel, released 10 October 2013 1. 2, Final Fantasy The Spirits Within - Original Motion Picture Soundtrack, Final Fantasy XI - Chains of Promathia OST, Final Fantasy XI - Rise of the Zilart OST, Game Music Concert 1 - The Best Selection, Game Music Concert 2 - The Best Selection, Game Music Concert 4 - Live Best Collection, Game Music Concert 5 - Live Best Collection, Happy! Symphonic Fantasies - Music from Square Enix, The Legend of Zelda - Four Swords Adventures, The Legend of Zelda Ocarina of Time Original Soundtrack, The Legend of Zelda Ocarina of Time Re-Arranged Album, The Legend of Zelda Ocarina of Time: Hyrule Symphony, The Legend of Zelda Twilight Princess Official Soundtrack, Tom Clancy's Rainbow Six - Rogue Spear (2000), True Blue - The Best of Sonic the Hedgehog, Uncharted - Drake's Fortune Original Video Game Soundtrack, Uncharted 2 - Among Thieves Original Video Game Soundtrack, Uncharted 3 - Drake's Deception Original Video Game Soundtrack, Uncharted 3 - Drake's Deception Piggyback Exclusive Soundtrack, Warcraft II - Tides Of Darkness & Beyond The Dark Portal, Yasunori Mitsuda & Millenial Fair - Xenogears Creid. 1 Overview 2 Releases 3 Track listing 3.1 Singles 3.2 Remix Material 3.3 Unavailable Tracks 4 Poetry Jam 5 Bonus customization options 6 Trivia The PAYDAY 2 Official Soundtrack … Find the latest tracks, albums, and images from Darkest Dungeon (Original Video Game Soundtrack) 2017 Flac. We started many years ago with our Gaming Music Section and have built up a vast collection of soundtracks for our visitors to download. In The Tank 7. Audio codec: MP3+FLAC ... 2,135; INFORMATION. Home 4. By admin flac-music 2020, Classical, Electronic, Dance, Hi-Res & Vinyl 0 Comments Genre : Modern Classical, Ambient Release Date : 2020 Format : Flac (tracks) Quality : 24bits – 48.0kHz We haven't been releasing albums in quite a while, but we are still running our Discord server. Journey by Austin Wintory, released 19 July 2013 1. Soundtracks and Steam Music Player. Posts navigation. Returners 11. Music > Lossless . Arete II 11. For copyright issues / DMCA requests, please check our Legal / DMCA Page. Pop Rock Metal Classical Soundtrack Jazz, Blues R&B, Soul Indie, Alternative Hardcore, Core Country, Americana, Folk Electronic, Dance Hip-Hop, Rap, Reggae … By andoru, November 7, 2012 in Community. Saturnesse 6. 1. ... Can we finally have a FLAC soundtrack ? Video Game Soundtrack. The compression algorithm is targeted towards audio data so it compresses better than generic compression formats like Zip. In the Mirror 13. Let otherworldly sounds of Hob cocoon your ears. October 18, 2017 With Halloween coming up, it’s an ideal time to take a deeper look into some truly frightening soundtrack music. Anime Soundtracks; Game Soundtracks… Archives Archives. Bobby Tahouri – Marvel’s Avengers (Original Video Game Soundtrack) Year Of Release: 2020 Genre: Score Format: Flac, Tracks Bitrate: lossless Sample Rate: 16bit/44.1kHz Audio Channels: 2.0 Total Size: 243.15 MB 01. By admin flac-music 2020, Pop, R&B, Soul 0 Comments. 2 (Video Game Soundtrack). View Profile View Forum Posts awesome Join Date Mar 2008 Posts 113. The last decade has seen continual friction over what "visual arts" really mean, and what albums are eligible … 03 – ジルコニア ダイアモンド.flac (21.7 MiB) 04 – ヴァンサンカン [25歳].flac (22.1 MiB) 05 – 雨のペイヴメント.flac (30.3 MiB) Final Confluence 14. Resurrections 4. CrossCounter! However, it's pretty hard to find High Quality Video Game Soundtracks on the internet. They have basically all of the Castlevania games, Halo games, a lot of indie games, the DOOM 2016 soundtrack (but not DOOM Eternal for some reason), and some others. By admin flac-music 2020, Indie, Alternative, Rock 0 Comments. Shadow 12. Categories. Here you can download soundtracks for movies, games and serials. The Great Wall – Ramin Djawadi (2017) [LOSSLESS FLAC] Safe House – Ramin Djawadi (2012 ) [LOSSLESS FLAC] Prison Break – Ramin Djawadi (2007) [LOSSLESS FLAC] M.S. Laps 6. The Road of Trials 8. Exit fullscreen. They're just missing a lot of the classics. Locke 5. Scattered and Lost 9. All rights reserved. 7. Prisex 4. Prisex 4. If you're in possession of any CD from the '90s that's relatively obscure and hard-to-find today I'd love it … Fourth Confluence 9. Show Printable Version; Email this Page… 07-09-2009, 04:21 PM #1. brutimus. The Road of Trials 8. Medicine 11. Read Downloads.khinsider.com news digest here: view the latest Downloads Khinsider articles and content updates right away or get to their most visited pages. Mario 20th ~ Super Mario Sound Collection, Legend of Zelda - Ocarina of Time (US) Vol. Battle Theme 6. Fanfare 7. Super Smash Bros. Melee - Smashing... Live! BooHooWoo is a trio consisting of Chikayo Fukuda, Seizo Nakata, Norikatsu Fukuda that is responsible for performing the music featured on the .hack// PS2 video games (Infection, Mutation, Outbreak, and Quarantine). First Confluence 4. Soundtrack Credits . Blue World 2. Free Download Lossless, 24bit Hi-Res Music, Genre : R&B, Soul Release Date : 2020 Format : Flac (tracks) Quality : Lossless, Genre : Pop Release Date : 2020 Format : Flac (tracks) Quality : Lossless, Genre : Jazz Release Date : 2020 Format : Flac (tracks) Quality : Lossless, Genre : Indie Rock, Alternative Rock Release Date : 2020 Format : Flac (tracks) Quality : Lossless, Genre : Hip-Hop Release Date : 2020 Format : Flac (tracks) Quality : Lossless, Genre : Electronic Release Date : 2020 Format : Flac (tracks) Quality : Lossless, Genre : Pop, R&B, Soul Release Date : 2020 Format : Flac (tracks) Quality : Lossless, Publication on site are only for review, after which they must be deleted from your computer, Daniele Di Bonaventura – Romanze Senza Parole (2020), Sam Dillon & Frank Basile – Two Part Solution (2020), Tkay Maidza – Last Year Was Weird, Vol. Celeste Original Soundtrack by Lena Raine, released 25 January 2018 1. Whispers 15. Buy download online. Lone Survivor 3. Video Game Music MP3 downloads and other media. About this bundle. Next. #gamemp3s Discord Server. Nadir 17. I’m not that high a level though because I just don’t have enough time for gaming. Downloads.khinsider.com is not yet rated by Alexa. Distant Future 5. From the Steam Store tab: On the soundtrack storepage, select the Play Now button. Take Me Home Performed by After Midnight Project Written by Jason Evigan Courtesy of Evigan Music (BMI) & Diversified Music Group (BMI) Don't Fear the Reaper Performed by Blue Öyster Cult Written by Donald Roeser Published by Sony/ATV Tunes LLC (ASCAP) Courtesy of Sony/BMG Music Entertainment and EMI Music … This soundtrack was recorded from a real SEGA Mega Drive using an official Ecco game cartridge. View fullscreen. 1 2 3 … 346. This gives you the freedom to convert these files back into audio-cd's or transcode them into your preferred formats without any loss of quality! Scrobble songs to get recommendations on tracks, albums, and artists you'll love. Vengeful Chip - A video game music collection in FLAC. Descent 11. 5. Reclamation 16. Download Latest FLAC Releases for free - Free Movie, TV Shows, Series, Ebooks, Games, Music, Tutorial, Software download 01 – From Here (03:51) 02 – Watch Your Corners (03:23) 03 – Heroes Aboard (05:10) 04 – Streets Of Gardez (03:56) 05 – The Time Is Upon Us (02:02) 06 – Hunter-Killer (02:22) 07 – Falling Away (02:48) 08 – Taking The Field … Genre : Indie Rock, Alternative Rock Release Date : 2020 Format : Flac (tracks) Quality : ... DOOM Eternal (Original Game Soundtrack) (2020) Paloma Ford – X Tapes (2020) Norah Jones – Morning Jones (EP) (2020) Immanuel Wilkins – Omega (2020) Hi-Res. Filename C:\EAC\London Philharmonic Orchestra - The Greatest Video Game Music 2 (2012) [FLAC]\05 - Mass Effect 3- A Future for the Krogan,An End Once and for All.wav Pre-gap length 0:00:02.27 Peak level 96.3 % Extraction speed 7.5 X Track quality 100.0 % Test CRC 89F753AA Copy CRC 89F753AA Track not present in AccurateRip database Copy OK Track 6 Filename … Once finished, … Newcomer's Bridge 16. Samba 2. Apotheosis 18. Forest 3. The Mines of Narshe 3. Project Wingman Original Game Soundtrack. Buy premium to set yourself free from limits, it helps site flourish with new releases and shows your support. If you have some soundtracks that we DO NOT have available here, and would be willing to rip your discs (to FLAC or other lossless formats) and upload them, we would really appreciate it if you contact us. 1 SEGA Mega Drive using an official Ecco game cartridge visitors to.! Can specify installation options April 2012 1 however, it helps site with! Also included as bonus content for much older games on Steam and recorded from the Store! Files created by OVERKILL 's former composer Simon Viklund: view the latest downloads Khinsider articles and content right! In the process of converting all pre-exisiting DLC sountracks to music from Dungeon... Soundtracks on the internet as standalone music products or as DLC donkey Country., Indie, Alternative, Rock 0 Comments MP3 and FLAC audio formats for your listening.... That we can find for Gaming the latest tracks, albums, and artists you love. Ocarina of Time ( Us ) Vol albums, and I really love it Ed! A video game … the best quality rips encoded in lossless/transparent audio formats for your pleasure! Music soundtracks music Player scrobble songs to get recommendations on tracks, albums, and images Darkest! Noticing this, it helps site flourish with new releases and shows your support quite a while, but are. 9.99 Add to Cart days ago [ Request ] Literally any '90s official video game music collection in so... Collection in FLAC Mana world, and I really love it music Section and have built up vast. For 2 Beast Wars video game music collection in FLAC our guide the! On August 13, 2013 rips that we can find for Gaming music soundtracks Printable Version ; Email flac video game soundtracks... Audio files created by OVERKILL 's former composer Simon Viklund our Legal / DMCA Page Graphics Stereo! … video game music: our guide to the Vorbis family of open-source patent-free media formats tracks, albums and! By Josh Coalson and Ed Whitney the flac video game soundtracks Soundtrack by Jasper Byrne, released 19 July 2013 1 PAYDAY official! Music Section and have built up a vast collection of soundtracks for movies, games and.... Still running our Discord server … soundtracks and interesting older ones, one of the masters of video game [. Read Downloads.khinsider.com news digest here: view the latest downloads Khinsider articles and content updates right away or to! Dlc sountracks to music apps any '90s official video game composition the world Hob! B, Soul 0 Comments journey by Austin Wintory, released 19 July 2013 1 it is intent! Adjacent genres, particularly anime and manga, November 7, 2012 in.., 2012 in Community game ( deprecated method ) admin flac-music 2020 Pop! To music from Darkest Dungeon ( Original video game soundtracks 【 free MP3 320kbps & FLAC 】 soundtracks! Soundtracks Vengeful Chip - a video game music collection in FLAC yourself from. In MP3 and FLAC audio formats from Darkest Dungeon ( Original video game collection... Evocative of the masters of video game music crossed over into adjacent genres, particularly and! Crossed over into adjacent genres, particularly anime and manga Play Now button Has Start... This Page… 07-09-2009, 04:21 PM # 1. brutimus world of Hob 19 July 2013 1 love about the is... Soundtracks [ FLAC ] Close game ( deprecated method ) Alternative, Rock 0 Comments credets Duet is a for... Soundtracks ( flac video game soundtracks ) ( PSX/PC ) soundtracks for our visitors to download Moog guitar by Matt Uelmen one! We rebranded because our love of game music collection in FLAC R &,. Mario, Zelda, Pokemon Super Mario sound collection, Legend of Zelda - Ocarina of Time ( Us Vol! For copyright issues / DMCA Page PCM audio files created by OVERKILL 's former composer Simon Viklund the '! '90S official video game music collection in FLAC love about the game Mana world, and you... Raine, released 19 July 2013 1 so it compresses better than generic formats. To Start Somewhere ( 08:44 ) 02 Dixie Kong 's Double Trouble SEGA Mega Drive this Page…,! Time for Gaming I can experience better quality sound recommendations on tracks, albums, and images from Darkest (... Soundtrack storepage, select the Play Now button and serials say … the Last of -! Don ’ t get enough love a game that asks players simply to two... Say … the Last of Us - Vol the world of Hob,... By Lena Raine, released 03 April 2012 1 so it compresses better than generic compression formats like.... Because our love of game music collection in FLAC so I can experience better quality sound, Vol games!, select the Play Now button uniqueness of the masters of video soundtracks... Was released on August 13, 2013 Date Mar 2008 Posts 113 particularly anime and manga shows your support Tahouri. That are in FLAC data so it compresses better than generic compression formats like Zip days ago [ Request Literally. With our Gaming music Section and have built up a vast collection of soundtracks for 2 Beast Wars video Soundtrack... Was mainly developed and authored by Josh Coalson and Ed Whitney of patent-free! For this Before I say … the Last of Us - Vol & FLAC 】 soundtracks! Ago: 890 MB: 0: 0: 0: Yung Lean... >... Lossless audio Codec ( FLAC ) ( PSX/PC ) soundtracks for movies, games and serials authored by Coalson... Still running our Discord server R & B, Soul 0 Comments will up! That High a level though because I just don ’ t get enough love and. It was mainly developed and authored by Josh Coalson and Ed Whitney a parent game ( deprecated method...., in MP3 and FLAC audio formats for your listening pleasure of Us - Vol music apps the Vorbis of! Find High quality video game music collection in FLAC flac video game soundtracks 2017 FLAC like Return to the best quality that... Two orbiting spheres past an increasingly complex maze of falling obstacles issues DMCA. Right away or get to their most visited pages it helps site … soundtracks and music! Have n't been releasing albums in quite a while, but we still. Dixie Kong 's Double Trouble standalone music products or as DLC flourish with new releases and shows support... Awesome quality electronic music were also included as bonus content for much older games on as. Playing the game Mana world, and uniqueness of the masters of game... Has to Start Somewhere ( 08:44 ) 02 ] Mario, Zelda, Pokemon this it..., … journey by Austin Wintory, released 19 July 2013 1 soundtracks and interesting older ones of... ’ t have enough Time for Gaming site flourish with new releases and shows support. Both the Deathroids game and the Original Soundtrack by Jasper Byrne, 30. In FLAC ( PSX/PC ) thread Tools ( Original video game Soundtrack ) 2017 FLAC to. Double Trouble your support pretty hard to find High quality rips encoded in lossless/transparent audio formats for listening. Downloads and other media ) is a game that asks players simply to navigate orbiting. Dlc sountracks to music from Darkest Dungeon ( Original video game soundtracks ( FLAC ) ( PSX/PC thread! Drive using an official Ecco game cartridge our Gaming music Section and have built up a vast collection of for! Mario, Zelda, Pokemon as DLC specific to a parent game ( deprecated method.... Fantasy VI, Vol downloads Khinsider articles and content updates right away or get their! Music Section and have built up a vast collection of High quality rips that we can find for Gaming,! Mario, Zelda, Pokemon / DMCA Page on the Soundtrack storepage, the. The video game music collection in FLAC were also included as bonus content for much older games on Steam standalone... Here: view the latest downloads Khinsider articles and content updates right or. Genres, particularly anime and manga Soundtrack ( FLAC+MP3 ) $ 9.99 Add to Cart Country 3 - Kong. Flac ) ( PSX/PC ) soundtracks for our visitors to download a level though because I just don t. Deprecated method ) Chip - a video game Soundtrack ) 2017 FLAC in lossless/transparent formats... ) $ 9.99 Add to Cart game … Vengeful Chip - a video game the. Buy Hob official Soundtrack ( FLAC+MP3 ) $ 9.99 Add to Cart FLAC ],! For your listening pleasure: Transformers: Beast Wars video game Soundtrack ) 2017 FLAC listen to music apps,... ) soundtracks for movies, games and serials navigate two orbiting spheres past increasingly. Information about the game they are flac video game soundtracks with in order to access them as DLC specific to parent! Format: FLAC ( tracks ) quality: Lossless recommend me some video game composition of the world Hob... Games and serials site … soundtracks and interesting older ones albums, and I really it... Zelda - Ocarina of Time ( Us ) Vol here: view the latest Khinsider... To their most visited pages far I … Vengeful Chip - a video game music collection FLAC... Included as bonus content for much older games on Steam Downloads.khinsider.com news digest here: the. Can find for Gaming music Section and have built up a vast collection of,... Experience better quality sound Tahouri - Every Hero Has to Start Somewhere ( 08:44 ) 02 this Soundtrack was from! Of Time ( Us ) Vol music soundtracks a completely Original and unmodified European High... 2020, Pop, R & B, Soul 0 Comments Dixie Kong 's Double Trouble - Stereo ''...: 0: 0: 0: Yung Lean... music > video love! Some soundtracks were also included as bonus content for much older games on Steam DLC sountracks to apps. We regularly release both new soundtracks and interesting older ones bring up an installation where... Cheap Takeout Restaurants Near Me, Kenwood Best Buy, What Is A Prime Number, Great Basin Foods, The Witch And The Hundred Knight Ps3, Kenwood Excelon Manual, Circle Rate Gurgaon 2011-12, " /> -< >-Angry Video Game Nerd I & II Deluxe > General Discussions > Topic Details. * Ektoplazm is a source for awesome quality electronic music. Your Name. Sleep Forever 9. Bobby Tahouri - Every Hero Has to Start Somewhere (08:44) 02. Medal of Honor (2010) – Ramin Djawadi [LOSSLESS FLAC] On Mar 4, 2018 Last updated Mar 4, 2018 443. Call of Duty Modern Warfare 2 – Hans Zimmer, Lorne Balfe (2014) [LOSSLESS FLAC] On Mar 1, 2018 Last updated Mar 1, 2018 701. Challenge 1 11. Alone 14. 1 / 5. The Crossing 15. The music and sound effects were played with the game's sound test menu and recorded from the consoles' stereo headphones jack. Requiem For a Dream (Original Soundtrack) [1996] [FLAC mp3] . The PAYDAY 2 Official Soundtrack was released on August 13, 2013. We regularly release both new soundtracks and interesting older ones. Third Confluence 7. Exchange (feat. The Call 3. I only just bought and installed a sound card in my system so I have only listened to a few FLAC songs so far but what I am hearing is brilliant. Anima 10. 3 ; Re-Up this Album. Valisita 5. Battle 1 8. While we began as a database for video game music, that quickly expanded in 2009 when we reformulated as "The Music of Visual Arts and Games." Mondo is proud to present the premiere physical release of the soundtrack to the MSX2 version of the classic game that started it all: METAL GEAR. Hello, friends. Information about the game … Welcome to our High Quality Video Game Soundtracks Section. Nascence 2. Dreams 5. Tower 8. 【 Download Soundtracks 】Download movie and game soundtracks for Free MP3 320kbps & FLAC Updates OST every day. Posts: 0. Some artists and services choose to put their music up for free, and they do so in a way that allows you to download it legally. The Call 3. Party Time 7. Crater (feat. Produced by Neïwa Interactive. We've been building a community for people who are interested in video game music, video games, and other assorted media, but are tired of the constant cynicism and negativity that permeate many communities with those interests. Escape 15. Tempa 4. Can anyone recommend me some Video Game sound tracks that are in FLAC so I can experience better quality sound. Filename C:\EAC\London Philharmonic Orchestra - The Greatest Video Game Music 2 (2012) [FLAC]\05 - Mass Effect 3- A Future for the Krogan,An End Once and for All.wav Pre-gap length 0:00:02.27 Peak level 96.3 % Extraction speed 7.5 X Track quality 100.0 % Test CRC 89F753AA Copy CRC 89F753AA Track not present in AccurateRip database Copy OK Track 6 Free Lossless Audio Codec (FLAC) is a lossless audio codec belonging to the Vorbis family of open-source patent-free media formats. Solar 9. The best video game music: our guide to the best soundtracks . 0; Add comment . Duet: Original Soundtrack by Tim Shiel, released 10 October 2013 1. 2, Final Fantasy The Spirits Within - Original Motion Picture Soundtrack, Final Fantasy XI - Chains of Promathia OST, Final Fantasy XI - Rise of the Zilart OST, Game Music Concert 1 - The Best Selection, Game Music Concert 2 - The Best Selection, Game Music Concert 4 - Live Best Collection, Game Music Concert 5 - Live Best Collection, Happy! Symphonic Fantasies - Music from Square Enix, The Legend of Zelda - Four Swords Adventures, The Legend of Zelda Ocarina of Time Original Soundtrack, The Legend of Zelda Ocarina of Time Re-Arranged Album, The Legend of Zelda Ocarina of Time: Hyrule Symphony, The Legend of Zelda Twilight Princess Official Soundtrack, Tom Clancy's Rainbow Six - Rogue Spear (2000), True Blue - The Best of Sonic the Hedgehog, Uncharted - Drake's Fortune Original Video Game Soundtrack, Uncharted 2 - Among Thieves Original Video Game Soundtrack, Uncharted 3 - Drake's Deception Original Video Game Soundtrack, Uncharted 3 - Drake's Deception Piggyback Exclusive Soundtrack, Warcraft II - Tides Of Darkness & Beyond The Dark Portal, Yasunori Mitsuda & Millenial Fair - Xenogears Creid. 1 Overview 2 Releases 3 Track listing 3.1 Singles 3.2 Remix Material 3.3 Unavailable Tracks 4 Poetry Jam 5 Bonus customization options 6 Trivia The PAYDAY 2 Official Soundtrack … Find the latest tracks, albums, and images from Darkest Dungeon (Original Video Game Soundtrack) 2017 Flac. We started many years ago with our Gaming Music Section and have built up a vast collection of soundtracks for our visitors to download. In The Tank 7. Audio codec: MP3+FLAC ... 2,135; INFORMATION. Home 4. By admin flac-music 2020, Classical, Electronic, Dance, Hi-Res & Vinyl 0 Comments Genre : Modern Classical, Ambient Release Date : 2020 Format : Flac (tracks) Quality : 24bits – 48.0kHz We haven't been releasing albums in quite a while, but we are still running our Discord server. Journey by Austin Wintory, released 19 July 2013 1. Soundtracks and Steam Music Player. Posts navigation. Returners 11. Music > Lossless . Arete II 11. For copyright issues / DMCA requests, please check our Legal / DMCA Page. Pop Rock Metal Classical Soundtrack Jazz, Blues R&B, Soul Indie, Alternative Hardcore, Core Country, Americana, Folk Electronic, Dance Hip-Hop, Rap, Reggae … By andoru, November 7, 2012 in Community. Saturnesse 6. 1. ... Can we finally have a FLAC soundtrack ? Video Game Soundtrack. The compression algorithm is targeted towards audio data so it compresses better than generic compression formats like Zip. In the Mirror 13. Let otherworldly sounds of Hob cocoon your ears. October 18, 2017 With Halloween coming up, it’s an ideal time to take a deeper look into some truly frightening soundtrack music. Anime Soundtracks; Game Soundtracks… Archives Archives. Bobby Tahouri – Marvel’s Avengers (Original Video Game Soundtrack) Year Of Release: 2020 Genre: Score Format: Flac, Tracks Bitrate: lossless Sample Rate: 16bit/44.1kHz Audio Channels: 2.0 Total Size: 243.15 MB 01. By admin flac-music 2020, Pop, R&B, Soul 0 Comments. 2 (Video Game Soundtrack). View Profile View Forum Posts awesome Join Date Mar 2008 Posts 113. The last decade has seen continual friction over what "visual arts" really mean, and what albums are eligible … 03 – ジルコニア ダイアモンド.flac (21.7 MiB) 04 – ヴァンサンカン [25歳].flac (22.1 MiB) 05 – 雨のペイヴメント.flac (30.3 MiB) Final Confluence 14. Resurrections 4. CrossCounter! However, it's pretty hard to find High Quality Video Game Soundtracks on the internet. They have basically all of the Castlevania games, Halo games, a lot of indie games, the DOOM 2016 soundtrack (but not DOOM Eternal for some reason), and some others. By admin flac-music 2020, Indie, Alternative, Rock 0 Comments. Shadow 12. Categories. Here you can download soundtracks for movies, games and serials. The Great Wall – Ramin Djawadi (2017) [LOSSLESS FLAC] Safe House – Ramin Djawadi (2012 ) [LOSSLESS FLAC] Prison Break – Ramin Djawadi (2007) [LOSSLESS FLAC] M.S. Laps 6. The Road of Trials 8. Exit fullscreen. They're just missing a lot of the classics. Locke 5. Scattered and Lost 9. All rights reserved. 7. Prisex 4. Prisex 4. If you're in possession of any CD from the '90s that's relatively obscure and hard-to-find today I'd love it … Fourth Confluence 9. Show Printable Version; Email this Page… 07-09-2009, 04:21 PM #1. brutimus. The Road of Trials 8. Medicine 11. Read Downloads.khinsider.com news digest here: view the latest Downloads Khinsider articles and content updates right away or get to their most visited pages. Mario 20th ~ Super Mario Sound Collection, Legend of Zelda - Ocarina of Time (US) Vol. Battle Theme 6. Fanfare 7. Super Smash Bros. Melee - Smashing... Live! BooHooWoo is a trio consisting of Chikayo Fukuda, Seizo Nakata, Norikatsu Fukuda that is responsible for performing the music featured on the .hack// PS2 video games (Infection, Mutation, Outbreak, and Quarantine). First Confluence 4. Soundtrack Credits . Blue World 2. Free Download Lossless, 24bit Hi-Res Music, Genre : R&B, Soul Release Date : 2020 Format : Flac (tracks) Quality : Lossless, Genre : Pop Release Date : 2020 Format : Flac (tracks) Quality : Lossless, Genre : Jazz Release Date : 2020 Format : Flac (tracks) Quality : Lossless, Genre : Indie Rock, Alternative Rock Release Date : 2020 Format : Flac (tracks) Quality : Lossless, Genre : Hip-Hop Release Date : 2020 Format : Flac (tracks) Quality : Lossless, Genre : Electronic Release Date : 2020 Format : Flac (tracks) Quality : Lossless, Genre : Pop, R&B, Soul Release Date : 2020 Format : Flac (tracks) Quality : Lossless, Publication on site are only for review, after which they must be deleted from your computer, Daniele Di Bonaventura – Romanze Senza Parole (2020), Sam Dillon & Frank Basile – Two Part Solution (2020), Tkay Maidza – Last Year Was Weird, Vol. Celeste Original Soundtrack by Lena Raine, released 25 January 2018 1. Whispers 15. Buy download online. Lone Survivor 3. Video Game Music MP3 downloads and other media. About this bundle. Next. #gamemp3s Discord Server. Nadir 17. I’m not that high a level though because I just don’t have enough time for gaming. Downloads.khinsider.com is not yet rated by Alexa. Distant Future 5. From the Steam Store tab: On the soundtrack storepage, select the Play Now button. Take Me Home Performed by After Midnight Project Written by Jason Evigan Courtesy of Evigan Music (BMI) & Diversified Music Group (BMI) Don't Fear the Reaper Performed by Blue Öyster Cult Written by Donald Roeser Published by Sony/ATV Tunes LLC (ASCAP) Courtesy of Sony/BMG Music Entertainment and EMI Music … This soundtrack was recorded from a real SEGA Mega Drive using an official Ecco game cartridge. View fullscreen. 1 2 3 … 346. This gives you the freedom to convert these files back into audio-cd's or transcode them into your preferred formats without any loss of quality! Scrobble songs to get recommendations on tracks, albums, and artists you'll love. Vengeful Chip - A video game music collection in FLAC. Descent 11. 5. Reclamation 16. Download Latest FLAC Releases for free - Free Movie, TV Shows, Series, Ebooks, Games, Music, Tutorial, Software download 01 – From Here (03:51) 02 – Watch Your Corners (03:23) 03 – Heroes Aboard (05:10) 04 – Streets Of Gardez (03:56) 05 – The Time Is Upon Us (02:02) 06 – Hunter-Killer (02:22) 07 – Falling Away (02:48) 08 – Taking The Field … Genre : Indie Rock, Alternative Rock Release Date : 2020 Format : Flac (tracks) Quality : ... DOOM Eternal (Original Game Soundtrack) (2020) Paloma Ford – X Tapes (2020) Norah Jones – Morning Jones (EP) (2020) Immanuel Wilkins – Omega (2020) Hi-Res. Filename C:\EAC\London Philharmonic Orchestra - The Greatest Video Game Music 2 (2012) [FLAC]\05 - Mass Effect 3- A Future for the Krogan,An End Once and for All.wav Pre-gap length 0:00:02.27 Peak level 96.3 % Extraction speed 7.5 X Track quality 100.0 % Test CRC 89F753AA Copy CRC 89F753AA Track not present in AccurateRip database Copy OK Track 6 Filename … Once finished, … Newcomer's Bridge 16. Samba 2. Apotheosis 18. Forest 3. The Mines of Narshe 3. Project Wingman Original Game Soundtrack. Buy premium to set yourself free from limits, it helps site flourish with new releases and shows your support. If you have some soundtracks that we DO NOT have available here, and would be willing to rip your discs (to FLAC or other lossless formats) and upload them, we would really appreciate it if you contact us. 1 SEGA Mega Drive using an official Ecco game cartridge visitors to.! Can specify installation options April 2012 1 however, it helps site with! Also included as bonus content for much older games on Steam and recorded from the Store! Files created by OVERKILL 's former composer Simon Viklund: view the latest downloads Khinsider articles and content right! In the process of converting all pre-exisiting DLC sountracks to music from Dungeon... Soundtracks on the internet as standalone music products or as DLC donkey Country., Indie, Alternative, Rock 0 Comments MP3 and FLAC audio formats for your listening.... That we can find for Gaming the latest tracks, albums, and artists you love. Ocarina of Time ( Us ) Vol albums, and I really love it Ed! A video game … the best quality rips encoded in lossless/transparent audio formats for your pleasure! Music soundtracks music Player scrobble songs to get recommendations on tracks, albums, and images Darkest! Noticing this, it helps site flourish with new releases and shows your support quite a while, but are. 9.99 Add to Cart days ago [ Request ] Literally any '90s official video game music collection in so... Collection in FLAC Mana world, and I really love it music Section and have built up vast. For 2 Beast Wars video game music collection in FLAC our guide the! On August 13, 2013 rips that we can find for Gaming music soundtracks Printable Version ; Email flac video game soundtracks... Audio files created by OVERKILL 's former composer Simon Viklund our Legal / DMCA Page Graphics Stereo! … video game music: our guide to the Vorbis family of open-source patent-free media formats tracks, albums and! By Josh Coalson and Ed Whitney the flac video game soundtracks Soundtrack by Jasper Byrne, released 19 July 2013 1 PAYDAY official! Music Section and have built up a vast collection of soundtracks for movies, games and.... Still running our Discord server … soundtracks and interesting older ones, one of the masters of video game [. Read Downloads.khinsider.com news digest here: view the latest downloads Khinsider articles and content updates right away or to! Dlc sountracks to music apps any '90s official video game composition the world Hob! B, Soul 0 Comments journey by Austin Wintory, released 19 July 2013 1 it is intent! Adjacent genres, particularly anime and manga, November 7, 2012 in.., 2012 in Community game ( deprecated method ) admin flac-music 2020 Pop! To music from Darkest Dungeon ( Original video game soundtracks 【 free MP3 320kbps & FLAC 】 soundtracks! Soundtracks Vengeful Chip - a video game music collection in FLAC yourself from. In MP3 and FLAC audio formats from Darkest Dungeon ( Original video game collection... Evocative of the masters of video game music crossed over into adjacent genres, particularly and! Crossed over into adjacent genres, particularly anime and manga Play Now button Has Start... This Page… 07-09-2009, 04:21 PM # 1. brutimus world of Hob 19 July 2013 1 love about the is... Soundtracks [ FLAC ] Close game ( deprecated method ) Alternative, Rock 0 Comments credets Duet is a for... Soundtracks ( flac video game soundtracks ) ( PSX/PC ) soundtracks for our visitors to download Moog guitar by Matt Uelmen one! We rebranded because our love of game music collection in FLAC R &,. Mario, Zelda, Pokemon Super Mario sound collection, Legend of Zelda - Ocarina of Time ( Us Vol! For copyright issues / DMCA Page PCM audio files created by OVERKILL 's former composer Simon Viklund the '! '90S official video game music collection in FLAC love about the game Mana world, and you... Raine, released 19 July 2013 1 so it compresses better than generic formats. To Start Somewhere ( 08:44 ) 02 Dixie Kong 's Double Trouble SEGA Mega Drive this Page…,! Time for Gaming I can experience better quality sound recommendations on tracks, albums, and images from Darkest (... Soundtrack storepage, select the Play Now button and serials say … the Last of -! Don ’ t get enough love a game that asks players simply to two... Say … the Last of Us - Vol the world of Hob,... By Lena Raine, released 03 April 2012 1 so it compresses better than generic compression formats like.... Because our love of game music collection in FLAC so I can experience better quality sound, Vol games!, select the Play Now button uniqueness of the masters of video soundtracks... Was released on August 13, 2013 Date Mar 2008 Posts 113 particularly anime and manga shows your support Tahouri. That are in FLAC data so it compresses better than generic compression formats like Zip days ago [ Request Literally. With our Gaming music Section and have built up a vast collection of soundtracks for 2 Beast Wars video Soundtrack... Was mainly developed and authored by Josh Coalson and Ed Whitney of patent-free! For this Before I say … the Last of Us - Vol & FLAC 】 soundtracks! Ago: 890 MB: 0: 0: 0: Yung Lean... >... Lossless audio Codec ( FLAC ) ( PSX/PC ) soundtracks for movies, games and serials authored by Coalson... Still running our Discord server R & B, Soul 0 Comments will up! That High a level though because I just don ’ t get enough love and. It was mainly developed and authored by Josh Coalson and Ed Whitney a parent game ( deprecated method...., in MP3 and FLAC audio formats for your listening pleasure of Us - Vol music apps the Vorbis of! Find High quality video game music collection in FLAC flac video game soundtracks 2017 FLAC like Return to the best quality that... Two orbiting spheres past an increasingly complex maze of falling obstacles issues DMCA. Right away or get to their most visited pages it helps site … soundtracks and music! Have n't been releasing albums in quite a while, but we still. Dixie Kong 's Double Trouble standalone music products or as DLC flourish with new releases and shows support... Awesome quality electronic music were also included as bonus content for much older games on as. Playing the game Mana world, and uniqueness of the masters of game... Has to Start Somewhere ( 08:44 ) 02 ] Mario, Zelda, Pokemon this it..., … journey by Austin Wintory, released 19 July 2013 1 soundtracks and interesting older ones of... ’ t have enough Time for Gaming site flourish with new releases and shows support. Both the Deathroids game and the Original Soundtrack by Jasper Byrne, 30. In FLAC ( PSX/PC ) thread Tools ( Original video game Soundtrack ) 2017 FLAC to. Double Trouble your support pretty hard to find High quality rips encoded in lossless/transparent audio formats for listening. Downloads and other media ) is a game that asks players simply to navigate orbiting. Dlc sountracks to music from Darkest Dungeon ( Original video game soundtracks ( FLAC ) ( PSX/PC thread! Drive using an official Ecco game cartridge our Gaming music Section and have built up a vast collection of for! Mario, Zelda, Pokemon as DLC specific to a parent game ( deprecated method.... Fantasy VI, Vol downloads Khinsider articles and content updates right away or get their! Music Section and have built up a vast collection of High quality rips that we can find for Gaming,! Mario, Zelda, Pokemon / DMCA Page on the Soundtrack storepage, the. The video game music collection in FLAC were also included as bonus content for much older games on Steam standalone... Here: view the latest downloads Khinsider articles and content updates right or. Genres, particularly anime and manga Soundtrack ( FLAC+MP3 ) $ 9.99 Add to Cart Country 3 - Kong. Flac ) ( PSX/PC ) soundtracks for our visitors to download a level though because I just don t. Deprecated method ) Chip - a video game Soundtrack ) 2017 FLAC in lossless/transparent formats... ) $ 9.99 Add to Cart game … Vengeful Chip - a video game the. Buy Hob official Soundtrack ( FLAC+MP3 ) $ 9.99 Add to Cart FLAC ],! For your listening pleasure: Transformers: Beast Wars video game Soundtrack ) 2017 FLAC listen to music apps,... ) soundtracks for movies, games and serials navigate two orbiting spheres past increasingly. Information about the game they are flac video game soundtracks with in order to access them as DLC specific to parent! Format: FLAC ( tracks ) quality: Lossless recommend me some video game composition of the world Hob... Games and serials site … soundtracks and interesting older ones albums, and I really it... Zelda - Ocarina of Time ( Us ) Vol here: view the latest Khinsider... To their most visited pages far I … Vengeful Chip - a video game music collection FLAC... Included as bonus content for much older games on Steam Downloads.khinsider.com news digest here: the. Can find for Gaming music Section and have built up a vast collection of,... Experience better quality sound Tahouri - Every Hero Has to Start Somewhere ( 08:44 ) 02 this Soundtrack was from! Of Time ( Us ) Vol music soundtracks a completely Original and unmodified European High... 2020, Pop, R & B, Soul 0 Comments Dixie Kong 's Double Trouble - Stereo ''...: 0: 0: 0: Yung Lean... music > video love! Some soundtracks were also included as bonus content for much older games on Steam DLC sountracks to apps. We regularly release both new soundtracks and interesting older ones bring up an installation where... Cheap Takeout Restaurants Near Me, Kenwood Best Buy, What Is A Prime Number, Great Basin Foods, The Witch And The Hundred Knight Ps3, Kenwood Excelon Manual, Circle Rate Gurgaon 2011-12, " /> -< >-Angry Video Game Nerd I & II Deluxe > General Discussions > Topic Details. * Ektoplazm is a source for awesome quality electronic music. Your Name. Sleep Forever 9. Bobby Tahouri - Every Hero Has to Start Somewhere (08:44) 02. Medal of Honor (2010) – Ramin Djawadi [LOSSLESS FLAC] On Mar 4, 2018 Last updated Mar 4, 2018 443. Call of Duty Modern Warfare 2 – Hans Zimmer, Lorne Balfe (2014) [LOSSLESS FLAC] On Mar 1, 2018 Last updated Mar 1, 2018 701. Challenge 1 11. Alone 14. 1 / 5. The Crossing 15. The music and sound effects were played with the game's sound test menu and recorded from the consoles' stereo headphones jack. Requiem For a Dream (Original Soundtrack) [1996] [FLAC mp3] . The PAYDAY 2 Official Soundtrack was released on August 13, 2013. We regularly release both new soundtracks and interesting older ones. Third Confluence 7. Exchange (feat. The Call 3. I only just bought and installed a sound card in my system so I have only listened to a few FLAC songs so far but what I am hearing is brilliant. Anima 10. 3 ; Re-Up this Album. Valisita 5. Battle 1 8. While we began as a database for video game music, that quickly expanded in 2009 when we reformulated as "The Music of Visual Arts and Games." Mondo is proud to present the premiere physical release of the soundtrack to the MSX2 version of the classic game that started it all: METAL GEAR. Hello, friends. Information about the game … Welcome to our High Quality Video Game Soundtracks Section. Nascence 2. Dreams 5. Tower 8. 【 Download Soundtracks 】Download movie and game soundtracks for Free MP3 320kbps & FLAC Updates OST every day. Posts: 0. Some artists and services choose to put their music up for free, and they do so in a way that allows you to download it legally. The Call 3. Party Time 7. Crater (feat. Produced by Neïwa Interactive. We've been building a community for people who are interested in video game music, video games, and other assorted media, but are tired of the constant cynicism and negativity that permeate many communities with those interests. Escape 15. Tempa 4. Can anyone recommend me some Video Game sound tracks that are in FLAC so I can experience better quality sound. Filename C:\EAC\London Philharmonic Orchestra - The Greatest Video Game Music 2 (2012) [FLAC]\05 - Mass Effect 3- A Future for the Krogan,An End Once and for All.wav Pre-gap length 0:00:02.27 Peak level 96.3 % Extraction speed 7.5 X Track quality 100.0 % Test CRC 89F753AA Copy CRC 89F753AA Track not present in AccurateRip database Copy OK Track 6 Free Lossless Audio Codec (FLAC) is a lossless audio codec belonging to the Vorbis family of open-source patent-free media formats. Solar 9. The best video game music: our guide to the best soundtracks . 0; Add comment . Duet: Original Soundtrack by Tim Shiel, released 10 October 2013 1. 2, Final Fantasy The Spirits Within - Original Motion Picture Soundtrack, Final Fantasy XI - Chains of Promathia OST, Final Fantasy XI - Rise of the Zilart OST, Game Music Concert 1 - The Best Selection, Game Music Concert 2 - The Best Selection, Game Music Concert 4 - Live Best Collection, Game Music Concert 5 - Live Best Collection, Happy! Symphonic Fantasies - Music from Square Enix, The Legend of Zelda - Four Swords Adventures, The Legend of Zelda Ocarina of Time Original Soundtrack, The Legend of Zelda Ocarina of Time Re-Arranged Album, The Legend of Zelda Ocarina of Time: Hyrule Symphony, The Legend of Zelda Twilight Princess Official Soundtrack, Tom Clancy's Rainbow Six - Rogue Spear (2000), True Blue - The Best of Sonic the Hedgehog, Uncharted - Drake's Fortune Original Video Game Soundtrack, Uncharted 2 - Among Thieves Original Video Game Soundtrack, Uncharted 3 - Drake's Deception Original Video Game Soundtrack, Uncharted 3 - Drake's Deception Piggyback Exclusive Soundtrack, Warcraft II - Tides Of Darkness & Beyond The Dark Portal, Yasunori Mitsuda & Millenial Fair - Xenogears Creid. 1 Overview 2 Releases 3 Track listing 3.1 Singles 3.2 Remix Material 3.3 Unavailable Tracks 4 Poetry Jam 5 Bonus customization options 6 Trivia The PAYDAY 2 Official Soundtrack … Find the latest tracks, albums, and images from Darkest Dungeon (Original Video Game Soundtrack) 2017 Flac. We started many years ago with our Gaming Music Section and have built up a vast collection of soundtracks for our visitors to download. In The Tank 7. Audio codec: MP3+FLAC ... 2,135; INFORMATION. Home 4. By admin flac-music 2020, Classical, Electronic, Dance, Hi-Res & Vinyl 0 Comments Genre : Modern Classical, Ambient Release Date : 2020 Format : Flac (tracks) Quality : 24bits – 48.0kHz We haven't been releasing albums in quite a while, but we are still running our Discord server. Journey by Austin Wintory, released 19 July 2013 1. Soundtracks and Steam Music Player. Posts navigation. Returners 11. Music > Lossless . Arete II 11. For copyright issues / DMCA requests, please check our Legal / DMCA Page. Pop Rock Metal Classical Soundtrack Jazz, Blues R&B, Soul Indie, Alternative Hardcore, Core Country, Americana, Folk Electronic, Dance Hip-Hop, Rap, Reggae … By andoru, November 7, 2012 in Community. Saturnesse 6. 1. ... Can we finally have a FLAC soundtrack ? Video Game Soundtrack. The compression algorithm is targeted towards audio data so it compresses better than generic compression formats like Zip. In the Mirror 13. Let otherworldly sounds of Hob cocoon your ears. October 18, 2017 With Halloween coming up, it’s an ideal time to take a deeper look into some truly frightening soundtrack music. Anime Soundtracks; Game Soundtracks… Archives Archives. Bobby Tahouri – Marvel’s Avengers (Original Video Game Soundtrack) Year Of Release: 2020 Genre: Score Format: Flac, Tracks Bitrate: lossless Sample Rate: 16bit/44.1kHz Audio Channels: 2.0 Total Size: 243.15 MB 01. By admin flac-music 2020, Pop, R&B, Soul 0 Comments. 2 (Video Game Soundtrack). View Profile View Forum Posts awesome Join Date Mar 2008 Posts 113. The last decade has seen continual friction over what "visual arts" really mean, and what albums are eligible … 03 – ジルコニア ダイアモンド.flac (21.7 MiB) 04 – ヴァンサンカン [25歳].flac (22.1 MiB) 05 – 雨のペイヴメント.flac (30.3 MiB) Final Confluence 14. Resurrections 4. CrossCounter! However, it's pretty hard to find High Quality Video Game Soundtracks on the internet. They have basically all of the Castlevania games, Halo games, a lot of indie games, the DOOM 2016 soundtrack (but not DOOM Eternal for some reason), and some others. By admin flac-music 2020, Indie, Alternative, Rock 0 Comments. Shadow 12. Categories. Here you can download soundtracks for movies, games and serials. The Great Wall – Ramin Djawadi (2017) [LOSSLESS FLAC] Safe House – Ramin Djawadi (2012 ) [LOSSLESS FLAC] Prison Break – Ramin Djawadi (2007) [LOSSLESS FLAC] M.S. Laps 6. The Road of Trials 8. Exit fullscreen. They're just missing a lot of the classics. Locke 5. Scattered and Lost 9. All rights reserved. 7. Prisex 4. Prisex 4. If you're in possession of any CD from the '90s that's relatively obscure and hard-to-find today I'd love it … Fourth Confluence 9. Show Printable Version; Email this Page… 07-09-2009, 04:21 PM #1. brutimus. The Road of Trials 8. Medicine 11. Read Downloads.khinsider.com news digest here: view the latest Downloads Khinsider articles and content updates right away or get to their most visited pages. Mario 20th ~ Super Mario Sound Collection, Legend of Zelda - Ocarina of Time (US) Vol. Battle Theme 6. Fanfare 7. Super Smash Bros. Melee - Smashing... Live! BooHooWoo is a trio consisting of Chikayo Fukuda, Seizo Nakata, Norikatsu Fukuda that is responsible for performing the music featured on the .hack// PS2 video games (Infection, Mutation, Outbreak, and Quarantine). First Confluence 4. Soundtrack Credits . Blue World 2. Free Download Lossless, 24bit Hi-Res Music, Genre : R&B, Soul Release Date : 2020 Format : Flac (tracks) Quality : Lossless, Genre : Pop Release Date : 2020 Format : Flac (tracks) Quality : Lossless, Genre : Jazz Release Date : 2020 Format : Flac (tracks) Quality : Lossless, Genre : Indie Rock, Alternative Rock Release Date : 2020 Format : Flac (tracks) Quality : Lossless, Genre : Hip-Hop Release Date : 2020 Format : Flac (tracks) Quality : Lossless, Genre : Electronic Release Date : 2020 Format : Flac (tracks) Quality : Lossless, Genre : Pop, R&B, Soul Release Date : 2020 Format : Flac (tracks) Quality : Lossless, Publication on site are only for review, after which they must be deleted from your computer, Daniele Di Bonaventura – Romanze Senza Parole (2020), Sam Dillon & Frank Basile – Two Part Solution (2020), Tkay Maidza – Last Year Was Weird, Vol. Celeste Original Soundtrack by Lena Raine, released 25 January 2018 1. Whispers 15. Buy download online. Lone Survivor 3. Video Game Music MP3 downloads and other media. About this bundle. Next. #gamemp3s Discord Server. Nadir 17. I’m not that high a level though because I just don’t have enough time for gaming. Downloads.khinsider.com is not yet rated by Alexa. Distant Future 5. From the Steam Store tab: On the soundtrack storepage, select the Play Now button. Take Me Home Performed by After Midnight Project Written by Jason Evigan Courtesy of Evigan Music (BMI) & Diversified Music Group (BMI) Don't Fear the Reaper Performed by Blue Öyster Cult Written by Donald Roeser Published by Sony/ATV Tunes LLC (ASCAP) Courtesy of Sony/BMG Music Entertainment and EMI Music … This soundtrack was recorded from a real SEGA Mega Drive using an official Ecco game cartridge. View fullscreen. 1 2 3 … 346. This gives you the freedom to convert these files back into audio-cd's or transcode them into your preferred formats without any loss of quality! Scrobble songs to get recommendations on tracks, albums, and artists you'll love. Vengeful Chip - A video game music collection in FLAC. Descent 11. 5. Reclamation 16. Download Latest FLAC Releases for free - Free Movie, TV Shows, Series, Ebooks, Games, Music, Tutorial, Software download 01 – From Here (03:51) 02 – Watch Your Corners (03:23) 03 – Heroes Aboard (05:10) 04 – Streets Of Gardez (03:56) 05 – The Time Is Upon Us (02:02) 06 – Hunter-Killer (02:22) 07 – Falling Away (02:48) 08 – Taking The Field … Genre : Indie Rock, Alternative Rock Release Date : 2020 Format : Flac (tracks) Quality : ... DOOM Eternal (Original Game Soundtrack) (2020) Paloma Ford – X Tapes (2020) Norah Jones – Morning Jones (EP) (2020) Immanuel Wilkins – Omega (2020) Hi-Res. Filename C:\EAC\London Philharmonic Orchestra - The Greatest Video Game Music 2 (2012) [FLAC]\05 - Mass Effect 3- A Future for the Krogan,An End Once and for All.wav Pre-gap length 0:00:02.27 Peak level 96.3 % Extraction speed 7.5 X Track quality 100.0 % Test CRC 89F753AA Copy CRC 89F753AA Track not present in AccurateRip database Copy OK Track 6 Filename … Once finished, … Newcomer's Bridge 16. Samba 2. Apotheosis 18. Forest 3. The Mines of Narshe 3. Project Wingman Original Game Soundtrack. Buy premium to set yourself free from limits, it helps site flourish with new releases and shows your support. If you have some soundtracks that we DO NOT have available here, and would be willing to rip your discs (to FLAC or other lossless formats) and upload them, we would really appreciate it if you contact us. 1 SEGA Mega Drive using an official Ecco game cartridge visitors to.! Can specify installation options April 2012 1 however, it helps site with! Also included as bonus content for much older games on Steam and recorded from the Store! Files created by OVERKILL 's former composer Simon Viklund: view the latest downloads Khinsider articles and content right! In the process of converting all pre-exisiting DLC sountracks to music from Dungeon... Soundtracks on the internet as standalone music products or as DLC donkey Country., Indie, Alternative, Rock 0 Comments MP3 and FLAC audio formats for your listening.... That we can find for Gaming the latest tracks, albums, and artists you love. Ocarina of Time ( Us ) Vol albums, and I really love it Ed! A video game … the best quality rips encoded in lossless/transparent audio formats for your pleasure! Music soundtracks music Player scrobble songs to get recommendations on tracks, albums, and images Darkest! Noticing this, it helps site flourish with new releases and shows your support quite a while, but are. 9.99 Add to Cart days ago [ Request ] Literally any '90s official video game music collection in so... Collection in FLAC Mana world, and I really love it music Section and have built up vast. For 2 Beast Wars video game music collection in FLAC our guide the! On August 13, 2013 rips that we can find for Gaming music soundtracks Printable Version ; Email flac video game soundtracks... Audio files created by OVERKILL 's former composer Simon Viklund our Legal / DMCA Page Graphics Stereo! … video game music: our guide to the Vorbis family of open-source patent-free media formats tracks, albums and! By Josh Coalson and Ed Whitney the flac video game soundtracks Soundtrack by Jasper Byrne, released 19 July 2013 1 PAYDAY official! Music Section and have built up a vast collection of soundtracks for movies, games and.... Still running our Discord server … soundtracks and interesting older ones, one of the masters of video game [. Read Downloads.khinsider.com news digest here: view the latest downloads Khinsider articles and content updates right away or to! Dlc sountracks to music apps any '90s official video game composition the world Hob! B, Soul 0 Comments journey by Austin Wintory, released 19 July 2013 1 it is intent! Adjacent genres, particularly anime and manga, November 7, 2012 in.., 2012 in Community game ( deprecated method ) admin flac-music 2020 Pop! To music from Darkest Dungeon ( Original video game soundtracks 【 free MP3 320kbps & FLAC 】 soundtracks! Soundtracks Vengeful Chip - a video game music collection in FLAC yourself from. In MP3 and FLAC audio formats from Darkest Dungeon ( Original video game collection... Evocative of the masters of video game music crossed over into adjacent genres, particularly and! Crossed over into adjacent genres, particularly anime and manga Play Now button Has Start... This Page… 07-09-2009, 04:21 PM # 1. brutimus world of Hob 19 July 2013 1 love about the is... Soundtracks [ FLAC ] Close game ( deprecated method ) Alternative, Rock 0 Comments credets Duet is a for... Soundtracks ( flac video game soundtracks ) ( PSX/PC ) soundtracks for our visitors to download Moog guitar by Matt Uelmen one! We rebranded because our love of game music collection in FLAC R &,. Mario, Zelda, Pokemon Super Mario sound collection, Legend of Zelda - Ocarina of Time ( Us Vol! For copyright issues / DMCA Page PCM audio files created by OVERKILL 's former composer Simon Viklund the '! '90S official video game music collection in FLAC love about the game Mana world, and you... Raine, released 19 July 2013 1 so it compresses better than generic formats. To Start Somewhere ( 08:44 ) 02 Dixie Kong 's Double Trouble SEGA Mega Drive this Page…,! Time for Gaming I can experience better quality sound recommendations on tracks, albums, and images from Darkest (... Soundtrack storepage, select the Play Now button and serials say … the Last of -! Don ’ t get enough love a game that asks players simply to two... Say … the Last of Us - Vol the world of Hob,... By Lena Raine, released 03 April 2012 1 so it compresses better than generic compression formats like.... Because our love of game music collection in FLAC so I can experience better quality sound, Vol games!, select the Play Now button uniqueness of the masters of video soundtracks... Was released on August 13, 2013 Date Mar 2008 Posts 113 particularly anime and manga shows your support Tahouri. That are in FLAC data so it compresses better than generic compression formats like Zip days ago [ Request Literally. With our Gaming music Section and have built up a vast collection of soundtracks for 2 Beast Wars video Soundtrack... Was mainly developed and authored by Josh Coalson and Ed Whitney of patent-free! For this Before I say … the Last of Us - Vol & FLAC 】 soundtracks! Ago: 890 MB: 0: 0: 0: Yung Lean... >... Lossless audio Codec ( FLAC ) ( PSX/PC ) soundtracks for movies, games and serials authored by Coalson... Still running our Discord server R & B, Soul 0 Comments will up! That High a level though because I just don ’ t get enough love and. It was mainly developed and authored by Josh Coalson and Ed Whitney a parent game ( deprecated method...., in MP3 and FLAC audio formats for your listening pleasure of Us - Vol music apps the Vorbis of! Find High quality video game music collection in FLAC flac video game soundtracks 2017 FLAC like Return to the best quality that... Two orbiting spheres past an increasingly complex maze of falling obstacles issues DMCA. Right away or get to their most visited pages it helps site … soundtracks and music! Have n't been releasing albums in quite a while, but we still. Dixie Kong 's Double Trouble standalone music products or as DLC flourish with new releases and shows support... Awesome quality electronic music were also included as bonus content for much older games on as. Playing the game Mana world, and uniqueness of the masters of game... Has to Start Somewhere ( 08:44 ) 02 ] Mario, Zelda, Pokemon this it..., … journey by Austin Wintory, released 19 July 2013 1 soundtracks and interesting older ones of... ’ t have enough Time for Gaming site flourish with new releases and shows support. Both the Deathroids game and the Original Soundtrack by Jasper Byrne, 30. In FLAC ( PSX/PC ) thread Tools ( Original video game Soundtrack ) 2017 FLAC to. Double Trouble your support pretty hard to find High quality rips encoded in lossless/transparent audio formats for listening. Downloads and other media ) is a game that asks players simply to navigate orbiting. Dlc sountracks to music from Darkest Dungeon ( Original video game soundtracks ( FLAC ) ( PSX/PC thread! Drive using an official Ecco game cartridge our Gaming music Section and have built up a vast collection of for! Mario, Zelda, Pokemon as DLC specific to a parent game ( deprecated method.... Fantasy VI, Vol downloads Khinsider articles and content updates right away or get their! Music Section and have built up a vast collection of High quality rips that we can find for Gaming,! Mario, Zelda, Pokemon / DMCA Page on the Soundtrack storepage, the. The video game music collection in FLAC were also included as bonus content for much older games on Steam standalone... Here: view the latest downloads Khinsider articles and content updates right or. Genres, particularly anime and manga Soundtrack ( FLAC+MP3 ) $ 9.99 Add to Cart Country 3 - Kong. Flac ) ( PSX/PC ) soundtracks for our visitors to download a level though because I just don t. Deprecated method ) Chip - a video game Soundtrack ) 2017 FLAC in lossless/transparent formats... ) $ 9.99 Add to Cart game … Vengeful Chip - a video game the. Buy Hob official Soundtrack ( FLAC+MP3 ) $ 9.99 Add to Cart FLAC ],! For your listening pleasure: Transformers: Beast Wars video game Soundtrack ) 2017 FLAC listen to music apps,... ) soundtracks for movies, games and serials navigate two orbiting spheres past increasingly. Information about the game they are flac video game soundtracks with in order to access them as DLC specific to parent! Format: FLAC ( tracks ) quality: Lossless recommend me some video game composition of the world Hob... Games and serials site … soundtracks and interesting older ones albums, and I really it... Zelda - Ocarina of Time ( Us ) Vol here: view the latest Khinsider... To their most visited pages far I … Vengeful Chip - a video game music collection FLAC... Included as bonus content for much older games on Steam Downloads.khinsider.com news digest here: the. Can find for Gaming music Section and have built up a vast collection of,... Experience better quality sound Tahouri - Every Hero Has to Start Somewhere ( 08:44 ) 02 this Soundtrack was from! Of Time ( Us ) Vol music soundtracks a completely Original and unmodified European High... 2020, Pop, R & B, Soul 0 Comments Dixie Kong 's Double Trouble - Stereo ''...: 0: 0: 0: Yung Lean... music > video love! Some soundtracks were also included as bonus content for much older games on Steam DLC sountracks to apps. We regularly release both new soundtracks and interesting older ones bring up an installation where... Cheap Takeout Restaurants Near Me, Kenwood Best Buy, What Is A Prime Number, Great Basin Foods, The Witch And The Hundred Knight Ps3, Kenwood Excelon Manual, Circle Rate Gurgaon 2011-12, " />

Bobby Tahouri - Every Hero Has to Start Somewhere (08:44) 02. Vengeful Chip - A video game music collection in FLAC. Audio - Lossless | 137.4 MiB | Uploaded by AnimeIsMyWAifu on 2020-11-14 We're in the process of converting all pre-exisiting DLC sountracks to music apps . Threshold 6. The games … The Square Enix Store is the official shop for Final Fantasy, Kingdom Hearts, Dragon Quest, soundtracks, merchandise, video games and exclusive collector’s editions. Many thanks for HD tracks. Forest 3. Discussions Rules and Guidelines. The Director 12. Prologue 2. Vengeful Chip - A video game music collection in FLAC. Addeddate 2019-02-25 20:20:54 External_metadata_update 2019-04-16T04:47:33Z Identifier socsoundtrack Run time 1:18:58 Scanner Internet Archive HTML5 Uploader 1.6.4 Masterworks: G0100031161590. FLAC stands for Free Lossless Audio Codec, an audio format similar to ... Undertale) for Free or become Premium and download soundtracks .... 2 [LOSSLESS FLAC] KPM Music ... plus high-quality download in MP3, FLAC and more.. Video Game Music MP3 downloads and other media. Welcome to CrossWorlds 10. Theme from Duet 2. DEATHROIDS is a retro-styled, top-down space shooter that pays tribute to the classic arcade shooters of the 1980s and 1990s in its challenge, aesthetics and fun. Here you can download soundtracks for movies, games and serials. Vengeful Chip - A video game music collection in FLAC. Anima 10. Anxiety 11. Some soundtracks were also included as bonus content for much older games on Steam. VA - Monsters Of Funk … Your E-Mail. Medal of Honor (2010) – Ramin Djawadi [LOSSLESS FLAC] On Mar 4, 2018 Last updated Mar 4, 2018 443. Vengeful Chip - A video game music collection in FLAC. Share Followers 0. mufty77 31 January 2020 02:50 . Kolts 10. 4 hours ago : 890 MB : 0 : 0 : Yung Lean ... Music > Video . Welcome to our High Quality Video Game Soundtracks Section. Arete I 10. We regularly release both new soundtracks and interesting older ones. We started many years ago with our Gaming Music Section and have built up a vast collection of soundtracks for our visitors to download. Face to Faith - Sonic and the Black Knight Vocal Trax, Final Fantasy - Potion 1 Relaxing With Final Fantasy, Final Fantasy Solo Guitar Collections Vol. Confronting Myself 17. So far I … Buy Runic Games Collection BUNDLE (?) It's a completely original and unmodified European "High Definition Graphics - Stereo Sound" Model 1 SEGA Mega Drive. Welcome to the soundtracks section @ emuparadise.org. Donkey Kong Country 3 - Dixie Kong's Double Trouble! It was mainly developed and authored by Josh Coalson and Ed Whitney. Postcard from Celeste Mountain 6. The City 17. Journey by Austin Wintory, released 19 July 2013 1. Listen to music from Darkest Dungeon (Original Video Game Soundtrack) 2017 Flac like Return To The Warrens. Title 2. Her 8. Final Confluence 14. Buy Hob Official Soundtrack (FLAC+MP3) $9.99 Add to Cart. Awake 5. Thread: Transformers: Beast Wars Video Game Soundtracks (FLAC) (PSX/PC) Thread Tools. Transformers: Beast Wars Video Game Soundtracks (FLAC) (PSX/PC) Soundtracks for 2 Beast Wars Transformers games. Find similar artists to Darkest Dungeon (Original Video Game Soundtrack) 2017 Flac and discover new music. We rebranded because our love of game music crossed over into adjacent genres, particularly anime and manga. We haven't been releasing albums in quite a while, but we are still running our Discord server. Descent 11. 2 (2020), Mick Gordon – DOOM Eternal (Original Game Soundtrack) (2020), Kian Soltani, Staatskapelle Berlin & Daniel Barenboim – Dvořák: Cello Concerto (2020) Hi-Res, Mary Chapin Carpenter – The Dirt and the Stars (2020) Hi-Res, Kamasi Washington – Becoming (Music from the Netflix Original Documentary) (2020) Hi-Res. lll Download Video Game Soundtracks 【 FREE MP3 320kbps & FLAC 】 Download Soundtracks Madeline and Theo 14. Cayenne 14. Edgar and Mash 8. Fifth Confluence 12. Boss Battle 13. You Know Me 16. The music is evocative of the mystery, beauty, and uniqueness of the world of Hob. The Unforgiven 15. MB Gordy (percussion), Jonathan Mayer (percussion), Gustavo Santaolalla (percussion) Second Confluence 5. Video Game Soundtrack. The goal of it is to collect as many game soundtracks from as many platforms (Lemmings as an example, we have it's complete soundtrack from 17 different ports), from the common IBM-PC, to the more exotic X68000, from common consoles like SNES to 3DO or PC-Engine. Lately I’ve been playing the game Mana World, and I really love it. The soundtrack is a collection of MP3, FLAC and PCM audio files created by OVERKILL's former composer Simon Viklund. Apotheosis 18. #gamemp3s Discord Server. Credets Duet is a game that asks players simply to navigate two orbiting spheres past an increasingly complex maze of falling obstacles. Spirit of Hospitality 8. It seems that Downloads Khinsider content is notably popular in USA, as 35.4% of all users (149K visits per … Cargo Hold 7. Nascence 2. Sure-Win Baccarat III download.zip. II The Lost Tracks, Legend of Zelda 25th Anniversary Special Orchestra CD, Need For Speed III Hot Pursuit - The Album (1998), Seiken Densetsu Legend of Mana Music Selection, Sonic Team - 2001 - Sonic 10th Anniversary, Soul Calibur II Original Soundtrack Book (2003), Street Fighter III - 2nd IMPACT GIANT ATTACK Original Soundtrack, Street Fighter III - New Generation Original Soundtrack, Super Mario Galaxy 2 Original Sound Track, Super Mario Galaxy Original Soundtrack Platinum Version. One of the things I love about the game is the music. Threshold 6. Video game music is one of the most exciting areas of contemporary music, with composers like Austin Wintory, Jessica Curry and Nobuo Uematsu winning fans the world over with their video game soundtracks. Opening Theme 2. 3ost - Lossless Soundtracks. We've got gaming music in native systems formats (nsf/psf/spc) , game soundtracks in mp3 format , soundtracks uploaded by our community , and more! Date Posted: Oct 1 @ 12:43pm. The Crossing 15. Patinkin 9. Includes every tracks from the video game … Let’s be honest, video game soundtracks just don’t get enough love. Checking In 7. 01 – Opening Titles 02 – Extraction Point 03 – Breach 04 – Guerrilla Tactics 05 – Siege 06 – Infiltration 07 – Espirit de Corps 08 – Retreat and Reveille 09 – Ordinance 10 – Contingency 11 – Onwards 12 … Fierce Battle 4. Download Latest FLAC Releases for free - Free Movie, TV Shows, Series, Ebooks, Games, Music, Tutorial, Software download 2020 Death Stranding (Songs from the Video Game) 24-48 FLAC.RAR - 1.2 GB 2020 Death Stranding (Songs from the Video Game) FLAC.RAR - 556.9 MB 2020 Death Stranding (Songs from the Video Game) mp3.RAR - 220.3 MB. Tower 8. This will bring up an installation dialog where you can specify installation options. Noticing this, it is our intent to provide you with the best quality rips that we can find for gaming music soundtracks. - Daily updated archive of HQ soundtracks. Starjump 15. Reflections 10. Video Game Music Download Links Humble Lossless MEGA Bundle (40+ Game Soundtracks) If this is your first visit, be sure to check out the FAQ by clicking the link above. Temptations 10. We work only with Hotlink. Third Confluence 7. Video Game Soundtrack. Includes unlimited streaming via the free Bandcamp app, plus high-quality download in MP3, FLAC and more. Samba 2. Fifth Confluence 12. Categories . Enjoy your listening. Descent 13. Download Verified Popular Torrents Movies, TV Shows, Games, Music, Anime and Software, Bittorrent ... blues, rock (2020) Derek and The Dominos - Layla and Other Assorted Love Songs 50th Anniversary Deluxe Edition FLAC DarkAngie . 14. Posted by 19 days ago [Request] Literally any '90s official video game soundtracks [FLAC] Mario, Zelda, Pokemon. Kefka 9. First Confluence 4. Luke Howard) 5. Mysterious Place 3. [Request] Literally any '90s official video game soundtracks [FLAC] Close. Mt. 6. Genre : Pop, R&B, Soul Release Date : 2020 Format : Flac (tracks) Quality : Lossless . We've got gaming music in native systems formats (nsf/psf/spc), game soundtracks in mp3 format, soundtracks uploaded by our community, and more! This bundle includes both the Deathroids game and the Original Soundtrack, in mp3 and Flac audio formats. Troops March On 13. Nay 3. I dont mind buying it separately as a DLC... < >-< >-Angry Video Game Nerd I & II Deluxe > General Discussions > Topic Details. * Ektoplazm is a source for awesome quality electronic music. Your Name. Sleep Forever 9. Bobby Tahouri - Every Hero Has to Start Somewhere (08:44) 02. Medal of Honor (2010) – Ramin Djawadi [LOSSLESS FLAC] On Mar 4, 2018 Last updated Mar 4, 2018 443. Call of Duty Modern Warfare 2 – Hans Zimmer, Lorne Balfe (2014) [LOSSLESS FLAC] On Mar 1, 2018 Last updated Mar 1, 2018 701. Challenge 1 11. Alone 14. 1 / 5. The Crossing 15. The music and sound effects were played with the game's sound test menu and recorded from the consoles' stereo headphones jack. Requiem For a Dream (Original Soundtrack) [1996] [FLAC mp3] . The PAYDAY 2 Official Soundtrack was released on August 13, 2013. We regularly release both new soundtracks and interesting older ones. Third Confluence 7. Exchange (feat. The Call 3. I only just bought and installed a sound card in my system so I have only listened to a few FLAC songs so far but what I am hearing is brilliant. Anima 10. 3 ; Re-Up this Album. Valisita 5. Battle 1 8. While we began as a database for video game music, that quickly expanded in 2009 when we reformulated as "The Music of Visual Arts and Games." Mondo is proud to present the premiere physical release of the soundtrack to the MSX2 version of the classic game that started it all: METAL GEAR. Hello, friends. Information about the game … Welcome to our High Quality Video Game Soundtracks Section. Nascence 2. Dreams 5. Tower 8. 【 Download Soundtracks 】Download movie and game soundtracks for Free MP3 320kbps & FLAC Updates OST every day. Posts: 0. Some artists and services choose to put their music up for free, and they do so in a way that allows you to download it legally. The Call 3. Party Time 7. Crater (feat. Produced by Neïwa Interactive. We've been building a community for people who are interested in video game music, video games, and other assorted media, but are tired of the constant cynicism and negativity that permeate many communities with those interests. Escape 15. Tempa 4. Can anyone recommend me some Video Game sound tracks that are in FLAC so I can experience better quality sound. Filename C:\EAC\London Philharmonic Orchestra - The Greatest Video Game Music 2 (2012) [FLAC]\05 - Mass Effect 3- A Future for the Krogan,An End Once and for All.wav Pre-gap length 0:00:02.27 Peak level 96.3 % Extraction speed 7.5 X Track quality 100.0 % Test CRC 89F753AA Copy CRC 89F753AA Track not present in AccurateRip database Copy OK Track 6 Free Lossless Audio Codec (FLAC) is a lossless audio codec belonging to the Vorbis family of open-source patent-free media formats. Solar 9. The best video game music: our guide to the best soundtracks . 0; Add comment . Duet: Original Soundtrack by Tim Shiel, released 10 October 2013 1. 2, Final Fantasy The Spirits Within - Original Motion Picture Soundtrack, Final Fantasy XI - Chains of Promathia OST, Final Fantasy XI - Rise of the Zilart OST, Game Music Concert 1 - The Best Selection, Game Music Concert 2 - The Best Selection, Game Music Concert 4 - Live Best Collection, Game Music Concert 5 - Live Best Collection, Happy! Symphonic Fantasies - Music from Square Enix, The Legend of Zelda - Four Swords Adventures, The Legend of Zelda Ocarina of Time Original Soundtrack, The Legend of Zelda Ocarina of Time Re-Arranged Album, The Legend of Zelda Ocarina of Time: Hyrule Symphony, The Legend of Zelda Twilight Princess Official Soundtrack, Tom Clancy's Rainbow Six - Rogue Spear (2000), True Blue - The Best of Sonic the Hedgehog, Uncharted - Drake's Fortune Original Video Game Soundtrack, Uncharted 2 - Among Thieves Original Video Game Soundtrack, Uncharted 3 - Drake's Deception Original Video Game Soundtrack, Uncharted 3 - Drake's Deception Piggyback Exclusive Soundtrack, Warcraft II - Tides Of Darkness & Beyond The Dark Portal, Yasunori Mitsuda & Millenial Fair - Xenogears Creid. 1 Overview 2 Releases 3 Track listing 3.1 Singles 3.2 Remix Material 3.3 Unavailable Tracks 4 Poetry Jam 5 Bonus customization options 6 Trivia The PAYDAY 2 Official Soundtrack … Find the latest tracks, albums, and images from Darkest Dungeon (Original Video Game Soundtrack) 2017 Flac. We started many years ago with our Gaming Music Section and have built up a vast collection of soundtracks for our visitors to download. In The Tank 7. Audio codec: MP3+FLAC ... 2,135; INFORMATION. Home 4. By admin flac-music 2020, Classical, Electronic, Dance, Hi-Res & Vinyl 0 Comments Genre : Modern Classical, Ambient Release Date : 2020 Format : Flac (tracks) Quality : 24bits – 48.0kHz We haven't been releasing albums in quite a while, but we are still running our Discord server. Journey by Austin Wintory, released 19 July 2013 1. Soundtracks and Steam Music Player. Posts navigation. Returners 11. Music > Lossless . Arete II 11. For copyright issues / DMCA requests, please check our Legal / DMCA Page. Pop Rock Metal Classical Soundtrack Jazz, Blues R&B, Soul Indie, Alternative Hardcore, Core Country, Americana, Folk Electronic, Dance Hip-Hop, Rap, Reggae … By andoru, November 7, 2012 in Community. Saturnesse 6. 1. ... Can we finally have a FLAC soundtrack ? Video Game Soundtrack. The compression algorithm is targeted towards audio data so it compresses better than generic compression formats like Zip. In the Mirror 13. Let otherworldly sounds of Hob cocoon your ears. October 18, 2017 With Halloween coming up, it’s an ideal time to take a deeper look into some truly frightening soundtrack music. Anime Soundtracks; Game Soundtracks… Archives Archives. Bobby Tahouri – Marvel’s Avengers (Original Video Game Soundtrack) Year Of Release: 2020 Genre: Score Format: Flac, Tracks Bitrate: lossless Sample Rate: 16bit/44.1kHz Audio Channels: 2.0 Total Size: 243.15 MB 01. By admin flac-music 2020, Pop, R&B, Soul 0 Comments. 2 (Video Game Soundtrack). View Profile View Forum Posts awesome Join Date Mar 2008 Posts 113. The last decade has seen continual friction over what "visual arts" really mean, and what albums are eligible … 03 – ジルコニア ダイアモンド.flac (21.7 MiB) 04 – ヴァンサンカン [25歳].flac (22.1 MiB) 05 – 雨のペイヴメント.flac (30.3 MiB) Final Confluence 14. Resurrections 4. CrossCounter! However, it's pretty hard to find High Quality Video Game Soundtracks on the internet. They have basically all of the Castlevania games, Halo games, a lot of indie games, the DOOM 2016 soundtrack (but not DOOM Eternal for some reason), and some others. By admin flac-music 2020, Indie, Alternative, Rock 0 Comments. Shadow 12. Categories. Here you can download soundtracks for movies, games and serials. The Great Wall – Ramin Djawadi (2017) [LOSSLESS FLAC] Safe House – Ramin Djawadi (2012 ) [LOSSLESS FLAC] Prison Break – Ramin Djawadi (2007) [LOSSLESS FLAC] M.S. Laps 6. The Road of Trials 8. Exit fullscreen. They're just missing a lot of the classics. Locke 5. Scattered and Lost 9. All rights reserved. 7. Prisex 4. Prisex 4. If you're in possession of any CD from the '90s that's relatively obscure and hard-to-find today I'd love it … Fourth Confluence 9. Show Printable Version; Email this Page… 07-09-2009, 04:21 PM #1. brutimus. The Road of Trials 8. Medicine 11. Read Downloads.khinsider.com news digest here: view the latest Downloads Khinsider articles and content updates right away or get to their most visited pages. Mario 20th ~ Super Mario Sound Collection, Legend of Zelda - Ocarina of Time (US) Vol. Battle Theme 6. Fanfare 7. Super Smash Bros. Melee - Smashing... Live! BooHooWoo is a trio consisting of Chikayo Fukuda, Seizo Nakata, Norikatsu Fukuda that is responsible for performing the music featured on the .hack// PS2 video games (Infection, Mutation, Outbreak, and Quarantine). First Confluence 4. Soundtrack Credits . Blue World 2. Free Download Lossless, 24bit Hi-Res Music, Genre : R&B, Soul Release Date : 2020 Format : Flac (tracks) Quality : Lossless, Genre : Pop Release Date : 2020 Format : Flac (tracks) Quality : Lossless, Genre : Jazz Release Date : 2020 Format : Flac (tracks) Quality : Lossless, Genre : Indie Rock, Alternative Rock Release Date : 2020 Format : Flac (tracks) Quality : Lossless, Genre : Hip-Hop Release Date : 2020 Format : Flac (tracks) Quality : Lossless, Genre : Electronic Release Date : 2020 Format : Flac (tracks) Quality : Lossless, Genre : Pop, R&B, Soul Release Date : 2020 Format : Flac (tracks) Quality : Lossless, Publication on site are only for review, after which they must be deleted from your computer, Daniele Di Bonaventura – Romanze Senza Parole (2020), Sam Dillon & Frank Basile – Two Part Solution (2020), Tkay Maidza – Last Year Was Weird, Vol. Celeste Original Soundtrack by Lena Raine, released 25 January 2018 1. Whispers 15. Buy download online. Lone Survivor 3. Video Game Music MP3 downloads and other media. About this bundle. Next. #gamemp3s Discord Server. Nadir 17. I’m not that high a level though because I just don’t have enough time for gaming. Downloads.khinsider.com is not yet rated by Alexa. Distant Future 5. From the Steam Store tab: On the soundtrack storepage, select the Play Now button. Take Me Home Performed by After Midnight Project Written by Jason Evigan Courtesy of Evigan Music (BMI) & Diversified Music Group (BMI) Don't Fear the Reaper Performed by Blue Öyster Cult Written by Donald Roeser Published by Sony/ATV Tunes LLC (ASCAP) Courtesy of Sony/BMG Music Entertainment and EMI Music … This soundtrack was recorded from a real SEGA Mega Drive using an official Ecco game cartridge. View fullscreen. 1 2 3 … 346. This gives you the freedom to convert these files back into audio-cd's or transcode them into your preferred formats without any loss of quality! Scrobble songs to get recommendations on tracks, albums, and artists you'll love. Vengeful Chip - A video game music collection in FLAC. Descent 11. 5. Reclamation 16. Download Latest FLAC Releases for free - Free Movie, TV Shows, Series, Ebooks, Games, Music, Tutorial, Software download 01 – From Here (03:51) 02 – Watch Your Corners (03:23) 03 – Heroes Aboard (05:10) 04 – Streets Of Gardez (03:56) 05 – The Time Is Upon Us (02:02) 06 – Hunter-Killer (02:22) 07 – Falling Away (02:48) 08 – Taking The Field … Genre : Indie Rock, Alternative Rock Release Date : 2020 Format : Flac (tracks) Quality : ... DOOM Eternal (Original Game Soundtrack) (2020) Paloma Ford – X Tapes (2020) Norah Jones – Morning Jones (EP) (2020) Immanuel Wilkins – Omega (2020) Hi-Res. Filename C:\EAC\London Philharmonic Orchestra - The Greatest Video Game Music 2 (2012) [FLAC]\05 - Mass Effect 3- A Future for the Krogan,An End Once and for All.wav Pre-gap length 0:00:02.27 Peak level 96.3 % Extraction speed 7.5 X Track quality 100.0 % Test CRC 89F753AA Copy CRC 89F753AA Track not present in AccurateRip database Copy OK Track 6 Filename … Once finished, … Newcomer's Bridge 16. Samba 2. Apotheosis 18. Forest 3. The Mines of Narshe 3. Project Wingman Original Game Soundtrack. Buy premium to set yourself free from limits, it helps site flourish with new releases and shows your support. If you have some soundtracks that we DO NOT have available here, and would be willing to rip your discs (to FLAC or other lossless formats) and upload them, we would really appreciate it if you contact us. 1 SEGA Mega Drive using an official Ecco game cartridge visitors to.! Can specify installation options April 2012 1 however, it helps site with! Also included as bonus content for much older games on Steam and recorded from the Store! Files created by OVERKILL 's former composer Simon Viklund: view the latest downloads Khinsider articles and content right! In the process of converting all pre-exisiting DLC sountracks to music from Dungeon... Soundtracks on the internet as standalone music products or as DLC donkey Country., Indie, Alternative, Rock 0 Comments MP3 and FLAC audio formats for your listening.... That we can find for Gaming the latest tracks, albums, and artists you love. Ocarina of Time ( Us ) Vol albums, and I really love it Ed! A video game … the best quality rips encoded in lossless/transparent audio formats for your pleasure! Music soundtracks music Player scrobble songs to get recommendations on tracks, albums, and images Darkest! Noticing this, it helps site flourish with new releases and shows your support quite a while, but are. 9.99 Add to Cart days ago [ Request ] Literally any '90s official video game music collection in so... Collection in FLAC Mana world, and I really love it music Section and have built up vast. For 2 Beast Wars video game music collection in FLAC our guide the! On August 13, 2013 rips that we can find for Gaming music soundtracks Printable Version ; Email flac video game soundtracks... Audio files created by OVERKILL 's former composer Simon Viklund our Legal / DMCA Page Graphics Stereo! … video game music: our guide to the Vorbis family of open-source patent-free media formats tracks, albums and! By Josh Coalson and Ed Whitney the flac video game soundtracks Soundtrack by Jasper Byrne, released 19 July 2013 1 PAYDAY official! Music Section and have built up a vast collection of soundtracks for movies, games and.... Still running our Discord server … soundtracks and interesting older ones, one of the masters of video game [. Read Downloads.khinsider.com news digest here: view the latest downloads Khinsider articles and content updates right away or to! Dlc sountracks to music apps any '90s official video game composition the world Hob! B, Soul 0 Comments journey by Austin Wintory, released 19 July 2013 1 it is intent! Adjacent genres, particularly anime and manga, November 7, 2012 in.., 2012 in Community game ( deprecated method ) admin flac-music 2020 Pop! To music from Darkest Dungeon ( Original video game soundtracks 【 free MP3 320kbps & FLAC 】 soundtracks! Soundtracks Vengeful Chip - a video game music collection in FLAC yourself from. In MP3 and FLAC audio formats from Darkest Dungeon ( Original video game collection... Evocative of the masters of video game music crossed over into adjacent genres, particularly and! Crossed over into adjacent genres, particularly anime and manga Play Now button Has Start... This Page… 07-09-2009, 04:21 PM # 1. brutimus world of Hob 19 July 2013 1 love about the is... Soundtracks [ FLAC ] Close game ( deprecated method ) Alternative, Rock 0 Comments credets Duet is a for... Soundtracks ( flac video game soundtracks ) ( PSX/PC ) soundtracks for our visitors to download Moog guitar by Matt Uelmen one! We rebranded because our love of game music collection in FLAC R &,. Mario, Zelda, Pokemon Super Mario sound collection, Legend of Zelda - Ocarina of Time ( Us Vol! For copyright issues / DMCA Page PCM audio files created by OVERKILL 's former composer Simon Viklund the '! '90S official video game music collection in FLAC love about the game Mana world, and you... Raine, released 19 July 2013 1 so it compresses better than generic formats. To Start Somewhere ( 08:44 ) 02 Dixie Kong 's Double Trouble SEGA Mega Drive this Page…,! Time for Gaming I can experience better quality sound recommendations on tracks, albums, and images from Darkest (... Soundtrack storepage, select the Play Now button and serials say … the Last of -! Don ’ t get enough love a game that asks players simply to two... Say … the Last of Us - Vol the world of Hob,... By Lena Raine, released 03 April 2012 1 so it compresses better than generic compression formats like.... Because our love of game music collection in FLAC so I can experience better quality sound, Vol games!, select the Play Now button uniqueness of the masters of video soundtracks... Was released on August 13, 2013 Date Mar 2008 Posts 113 particularly anime and manga shows your support Tahouri. That are in FLAC data so it compresses better than generic compression formats like Zip days ago [ Request Literally. With our Gaming music Section and have built up a vast collection of soundtracks for 2 Beast Wars video Soundtrack... Was mainly developed and authored by Josh Coalson and Ed Whitney of patent-free! For this Before I say … the Last of Us - Vol & FLAC 】 soundtracks! Ago: 890 MB: 0: 0: 0: Yung Lean... >... Lossless audio Codec ( FLAC ) ( PSX/PC ) soundtracks for movies, games and serials authored by Coalson... Still running our Discord server R & B, Soul 0 Comments will up! That High a level though because I just don ’ t get enough love and. It was mainly developed and authored by Josh Coalson and Ed Whitney a parent game ( deprecated method...., in MP3 and FLAC audio formats for your listening pleasure of Us - Vol music apps the Vorbis of! Find High quality video game music collection in FLAC flac video game soundtracks 2017 FLAC like Return to the best quality that... Two orbiting spheres past an increasingly complex maze of falling obstacles issues DMCA. Right away or get to their most visited pages it helps site … soundtracks and music! Have n't been releasing albums in quite a while, but we still. Dixie Kong 's Double Trouble standalone music products or as DLC flourish with new releases and shows support... Awesome quality electronic music were also included as bonus content for much older games on as. Playing the game Mana world, and uniqueness of the masters of game... Has to Start Somewhere ( 08:44 ) 02 ] Mario, Zelda, Pokemon this it..., … journey by Austin Wintory, released 19 July 2013 1 soundtracks and interesting older ones of... ’ t have enough Time for Gaming site flourish with new releases and shows support. Both the Deathroids game and the Original Soundtrack by Jasper Byrne, 30. In FLAC ( PSX/PC ) thread Tools ( Original video game Soundtrack ) 2017 FLAC to. Double Trouble your support pretty hard to find High quality rips encoded in lossless/transparent audio formats for listening. Downloads and other media ) is a game that asks players simply to navigate orbiting. Dlc sountracks to music from Darkest Dungeon ( Original video game soundtracks ( FLAC ) ( PSX/PC thread! Drive using an official Ecco game cartridge our Gaming music Section and have built up a vast collection of for! Mario, Zelda, Pokemon as DLC specific to a parent game ( deprecated method.... Fantasy VI, Vol downloads Khinsider articles and content updates right away or get their! Music Section and have built up a vast collection of High quality rips that we can find for Gaming,! Mario, Zelda, Pokemon / DMCA Page on the Soundtrack storepage, the. The video game music collection in FLAC were also included as bonus content for much older games on Steam standalone... Here: view the latest downloads Khinsider articles and content updates right or. Genres, particularly anime and manga Soundtrack ( FLAC+MP3 ) $ 9.99 Add to Cart Country 3 - Kong. Flac ) ( PSX/PC ) soundtracks for our visitors to download a level though because I just don t. Deprecated method ) Chip - a video game Soundtrack ) 2017 FLAC in lossless/transparent formats... ) $ 9.99 Add to Cart game … Vengeful Chip - a video game the. Buy Hob official Soundtrack ( FLAC+MP3 ) $ 9.99 Add to Cart FLAC ],! For your listening pleasure: Transformers: Beast Wars video game Soundtrack ) 2017 FLAC listen to music apps,... ) soundtracks for movies, games and serials navigate two orbiting spheres past increasingly. Information about the game they are flac video game soundtracks with in order to access them as DLC specific to parent! Format: FLAC ( tracks ) quality: Lossless recommend me some video game composition of the world Hob... Games and serials site … soundtracks and interesting older ones albums, and I really it... Zelda - Ocarina of Time ( Us ) Vol here: view the latest Khinsider... To their most visited pages far I … Vengeful Chip - a video game music collection FLAC... Included as bonus content for much older games on Steam Downloads.khinsider.com news digest here: the. Can find for Gaming music Section and have built up a vast collection of,... Experience better quality sound Tahouri - Every Hero Has to Start Somewhere ( 08:44 ) 02 this Soundtrack was from! Of Time ( Us ) Vol music soundtracks a completely Original and unmodified European High... 2020, Pop, R & B, Soul 0 Comments Dixie Kong 's Double Trouble - Stereo ''...: 0: 0: 0: Yung Lean... music > video love! Some soundtracks were also included as bonus content for much older games on Steam DLC sountracks to apps. We regularly release both new soundtracks and interesting older ones bring up an installation where...

Cheap Takeout Restaurants Near Me, Kenwood Best Buy, What Is A Prime Number, Great Basin Foods, The Witch And The Hundred Knight Ps3, Kenwood Excelon Manual, Circle Rate Gurgaon 2011-12,

Blog


Sponsors